2015
7
Mar

[HD] Fame

Posted by under AIR tagged , , , | Comments Off on [HD] Fame


Fame.XXX.720p.WEBRiP.x264-TBP

Titel: Fame
Genre: All sex
Sprache/n: Englisch
Video Stream: WEBRiP
Audio Stream: Stereo
Video Codec: MPEG-4 H.264 / AVC
Hoster: Uploaded.net, Share-online.biz,
Größe: 2237,7 MB
Parts: 5 Dateien
Passwort: – wird nicht benötigt –

Josie (Kaylani Lei) seems to have it all: A loving and loyal husband and a beautiful new home. The only thing missing in Josies life is a career to call her own. Encouraged by her husband Ted (Brad Armstrong), Josie finally decides to pursue her lifelong goal of being a professional singer. But it quickly becomes apparent that fame comes with a stiff price. Hard work and long road trips are taking a toll on the one thing Josie thought she would always have: Ted. Can Josie and Ted keep her success from tearing them apart? Or will the price of fame cost them their love.

nfo:

[nfo]
THE.BEST.PORN.GIVES

Fame.XXX.720p.WEBRiP.x264-TBP

WEBSITE : http://www.cduniverse.com/productinfo.asp?pid=7787593
TYPE : x264
SIZE : 47 x 50MB

General
Complete name : tbp.famexxx.mp4
Format : MPEG-4
Format profile : Base Media
Codec ID : isom
File size : 2.19 GiB
Duration : 1h 45mn
Overall bit rate : 2 959 Kbps
Writing application : Lavf56.4.101

Video
ID : 1
Format : AVC
Format/Info : Advanced Video Codec
Format profile : High@L3.1
Format settings, CABAC : Yes
Format settings, ReFrames : 3 frames
Codec ID : avc1
Codec ID/Info : Advanced Video Coding
Duration : 1h 45mn
Bit rate : 2 826 Kbps
Width : 1 280 pixels
Height : 720 pixels
Display aspect ratio : 16:9
Frame rate mode : Constant
Frame rate : 23.976 fps
Color space : YUV
Chroma subsampling : 4:2:0
Bit depth : 8 bits
Scan type : Progressive
Bits/(Pixel*Frame) : 0.128
Stream size : 2.09 GiB (95%)

Audio
ID : 2
Format : AAC
Format/Info : Advanced Audio Codec
Format profile : LC
Codec ID : 40
Duration : 1h 45mn
Bit rate mode : Constant
Bit rate : 128 Kbps
Channel(s) : 2 channels
Channel positions : Front: L R
Sampling rate : 48.0 KHz
Compression mode : Lossy
Stream size : 96.6 MiB (4%)

REVIEW-URL :

Greetz to our good friends in GUSH
And the others which make this fun
[/nfo]

Mirror: 1

Uploaded.net

Mirror: 2

Share-online.biz

Having said that, our approach has changed since the beginning; as we get more and more comfortable listening to each other, the sound changes.






Share this