2015
2
May


Lexi.XXX.720p.WEBRip.x264-TBP

Titel: Lexi
Genre: All sex
Sprache/n: Englisch
Video Stream: WEBRiP
Audio Stream: Stereo
Video Codec: MPEG-4 H.264 / AVC
Hoster: Uploaded.net, Share-online.biz,
Größe: 3818,67 MB
Parts: 8 Dateien
Passwort: – wird nicht benötigt –

We love Lexi!Finally, that anal scene we all were waiting for! Watch as Lexi covers all the basics: Girl on girl, three-way, interracial and of course, anal! This blonde superstar is sure to please your cock, we promise!2013 XBiz Gonzo Release of the Year winner!2013 XBiz Director of the Year – Non-Feature Release – Mason.

nfo:

[nfo]
THE.BEST.PORN.GIVES

Lexi.XXX.720p.WEBRip.x264-TBP
http://www.cduniverse.com/productinf…7462&style=ice : 81 x 50MB

General
Complete name : tbp.exi720.mp4
Format : MPEG-4
Format profile : Base Media
Codec ID : isom
File size : 3.73 GiB
Duration : 2h 27mn
Overall bit rate : 3 623 Kbps
Writing application : Lavf56.4.101

Video
ID : 1
Format : AVC
Format/Info : Advanced Video Codec
Format profile : Main@L3.1
Format settings, CABAC : Yes
Format settings, ReFrames : 4 frames
Codec ID : avc1
Codec ID/Info : Advanced Video Coding
Duration : 2h 27mn
Bit rate : 3 500 Kbps
Width : 1 280 pixels
Height : 720 pixels
Display aspect ratio : 16:9
Frame rate mode : Variable
Frame rate : 29.970 fps
Minimum frame rate : 29.382 fps
Maximum frame rate : 29.970 fps
Color space : YUV
Chroma subsampling : 4:2:0
Bit depth : 8 bits
Scan type : Progressive
Bits/(Pixel*Frame) : 0.127
Stream size : 3.60 GiB (96%)
Writing library : x264 core 115
Encoding settings : cabac=1 / ref=3 / deblock=1:0:0 / analyse=0x1:0x111 / me=hex / subme=7 / psy=1 / psy_rd=1.00:0.00 / mixed_ref=1 / me_range=16 / chroma_me=1 / trellis=1 / 8x8dct=0 / cqm=0 / deadzone=21,11 / fast_pskip=1 / chroma_qp_offset=-2 / threads=16 / sliced_threads=0 / nr=0 / decimate=1 / interlaced=0 / bluray_compat=0 / constrained_intra=0 / bframes=3 / b_pyramid=2 / b_adapt=1 / b_bias=0 / direct=1 / weightb=1 / open_gop=0 / weightp=2 / keyint=250 / keyint_min=25 / scenecut=40 / intra_refresh=0 / rc_lookahead=40 / rc=abr / mbtree=1 / bitrate=3500 / ratetol=1.0 / qcomp=0.60 / qpmin=10 / qpmax=51 / qpstep=4 / ip_ratio=1.41 / aq=1:1.00

Audio
ID : 2
Format : AAC
Format/Info : Advanced Audio Codec
Format profile : LC
Codec ID : 40
Duration : 2h 27mn
Bit rate mode : Constant
Bit rate : 119 Kbps
Channel(s) : 2 channels
Channel positions : Front: L R
Sampling rate : 44.1 KHz
Compression mode : Lossy
Stream size : 126 MiB (3%)

REVIEW-URL :

Greetz to our good friends in GUSH
And the others which make this fun
[/nfo]

Mirror: 1

Uploaded.net

Mirror: 2

Share-online.biz

Leftist’s ego, anything that threatens it is intolerable and provokes rage.






Share this