David-Nudes.15.05.26.Ashley.Party.Girl.XXX.1080p.x264-TBP

Genre: Solo, Teen
Format: MKV
Auflösung: 1920×1080 Pixel
Bitrate: 10000kb/s
Größe: 274MB – RAR-Dateien: 3

Länge: 2 Minuten
Sprache: Englisch

Screenshots:

Code:

http://www.imagebam.com/gallery/mzkg…4ac93ycal9souf

NFO:

Code:

THE.BEST.PORN.GIVES

David-Nudes.15.05.26.Ashley.Party.Girl.XXX.1080p.x264-TBP

WEBSITE    : www.David-Nudes.com
TYPE        :  x264
SIZE        : 14 x 15MB

General
Complete name                            : tbp.dn0526apg.mp4
Format                                  : MPEG-4
Format profile                          : Base Media
Codec ID                                : isom
File size                                : 186 MiB
Duration                                : 2mn 50s
Overall bit rate mode                    : Variable
Overall bit rate                        : 9 145 Kbps
Writing application                      : Lavf56.4.101

Video
ID                                      : 1
Format                                  : AVC
Format/Info                              : Advanced Video Codec
Format profile                          : Main@L4.2
Format settings, CABAC                  : Yes
Format settings, ReFrames                : 3 frames
Codec ID                                : avc1
Codec ID/Info                            : Advanced Video Coding
Duration                                : 2mn 50s
Bit rate mode                            : Variable
Bit rate                                : 8 950 Kbps
Maximum bit rate                        : 10 000 Kbps
Width                                    : 1 920 pixels
Height                                  : 1 080 pixels
Display aspect ratio                    : 16:9
Frame rate mode                          : Constant
Frame rate                              : 29.970 fps
Standard                                : NTSC
Color space                              : YUV
Chroma subsampling                      : 4:2:0
Bit depth                                : 8 bits
Scan type                                : Progressive
Bits/(Pixel*Frame)                      : 0.144
Stream size                              : 182 MiB (98%)

Audio
ID                                      : 2
Format                                  : AAC
Format/Info                              : Advanced Audio Codec
Format profile                          : LC
Codec ID                                : 40
Duration                                : 2mn 50s
Bit rate mode                            : Constant
Bit rate                                : 192 Kbps
Channel(s)                              : 2 channels
Channel positions                        : Front: L R
Sampling rate                            : 48.0 KHz
Compression mode                        : Lossy
Stream size                              : 3.86 MiB (2%)

Uploaded.net

http://linkcrypt.ws/dir/w24co84qia9e182

Share-Online.biz

http://linkcrypt.ws/dir/o0wme39r7v9ea4h

Files sind untereinander kompatibel und SFV gecheckt!

Container: .rsdf / .ccf / .dlc / Click’n’Load
Passwort: keins
Packer: WinRAR 3.93 – 5% Wiederherstellungsinfo – Nur 1 mal gepackt

Tun Razak Hussein (current Prime Minister Najib’s father) had just died and Tun Hussein Dato’ Onn had just taken over as Prime Minister.







Share this